请选择 进入手机版 | 继续访问电脑版

中国高清论坛

11
 找回密码
 立即注册

QQ登录

只需一步,快速开始

查看: 8372|回复: 283

[科幻片] 黑暗空间 Dark.Space.2013.720p.WEB-DL.DD5.1.H264-RARBG 2.59 GiB

  [复制链接]

7975

主题

0

好友

4万

积分

区域版主

Rank: 8Rank: 8

UID
13244
主题
7975
金钱
19063
高清币
7868
鲜花
-99
阅读权限
100
QQ
QQ
最后登录
2017-3-28
发表于 2014-8-23 23:35:44 |显示全部楼层


◎译  名 黑暗空间
◎片  名 Dark Space
◎年  代 2013
◎国  家 美国
◎类  别 科幻
◎语  言 英语
◎语  言 N/A
◎IMDB评分 4.0/10 from 238 users
◎IMDB链接 http://www.imdb.com/title/tt1584943/
◎文件格式 H264 + DD5.1
◎视频尺寸 1280 x 640
◎文件大小 2.59 GiB
◎片  长 1h 31mn
◎导  演 Emmett Callinan
◎主  演 Alana Dietze .... Shelly
      Steve West .... Jack
      Tonya Kay .... Flower
      Avital Ash .... Kristy
      Zang Angelfire .... Intergalactic Traveler
      Robert Crobar Bilus .... Alien
      Abigail Buck .... Spaceport Patron
      Ashleigh Buck .... Spaceport Patron
      Sean Buck .... Spaceport Patron
      Joseph Darden .... Shaun
      Nancy Dobson .... Spaceport Patron
      Francisco Espalliat .... Shadow Creature
      Preston James Hillier .... EVS Commander
      Freddie Johnson .... EVS Soldier
      Tim Martin .... Soldier 3  


     

◎简  介 

  When their shuttle is damaged on the way to Centari Five, six friends are forced to crash land on the surface of a mysterious alien planet. Stranded with little hope of rescue, it soon becomes clear that they are not alone. Hunted by the planet's ferocious inhabitants and targeted by heavily-armed forces, they will have to struggle just to survive.
  1. ideo
  2. ID                                       : 1
  3. Format                                   : AVC
  4. Format/Info                              : Advanced Video Codec
  5. Format profile                           : Main@L3.1
  6. Format settings, CABAC                   : Yes
  7. Format settings, ReFrames                : 4 frames
  8. Codec ID                                 : V_MPEG4/ISO/AVC
  9. Duration                                 : 1h 31mn
  10. Bit rate                                 : 3 604 Kbps
  11. Nominal bit rate                         : 3 800 Kbps
  12. Width                                    : 1 280 pixels
  13. Height                                   : 640 pixels
  14. Display aspect ratio                     : 2.000
  15. Frame rate mode                          : Constant
  16. Frame rate                               : 23.976 fps
  17. Color space                              : YUV
  18. Chroma subsampling                       : 4:2:0
  19. Bit depth                                : 8 bits
  20. Scan type                                : Progressive
  21. Bits/(Pixel*Frame)                       : 0.183
  22. Stream size                              : 2.29 GiB (89%)
  23. Title                                    : Dark.Space.2013.720p.WEB-DL.DD5.1.H264-RARBG
  24. Writing library                          : x264 core 142 r2431 ac76440
  25. Default                                  : Yes
  26. Forced                                   : No
  27. Color primaries                          : BT.709
  28. Transfer characteristics                 : BT.709
  29. Matrix coefficients                      : BT.709

  30. Audio
  31. ID                                       : 2
  32. Format                                   : AC-3
  33. Format/Info                              : Audio Coding 3
  34. Mode extension                           : CM (complete main)
  35. Format settings, Endianness              : Big
  36. Codec ID                                 : A_AC3
  37. Duration                                 : 1h 31mn
  38. Bit rate mode                            : Constant
  39. Bit rate                                 : 384 Kbps
  40. Channel(s)                               : 6 channels
  41. Channel positions                        : Front: L C R, Side: L R, LFE
  42. Sampling rate                            : 48.0 KHz
  43. Bit depth                                : 16 bits
  44. Compression mode                         : Lossy
  45. Stream size                              : 250 MiB (9%)
  46. Title                                    : Dark.Space.2013.720p.WEB-DL.DD5.1.H264-RARBG
  47. Language                                 : English
  48. Default                                  : Yes
  49. Forced                                   : No

  50. Menu
  51. 00:00:00.000                             : :Chapter 1
  52. 00:11:37.155                             : :Chapter 2
  53. 00:20:39.196                             : :Chapter 3
  54. 00:31:04.154                             : :Chapter 4
  55. 00:42:50.151                             : :Chapter 5
  56. 00:54:14.168                             : :Chapter 6
  57. 01:05:44.149                             : :Chapter 7
  58. 01:16:31.128                             : :Chapter 8
  59. 01:26:28.141                             : :Chapter 9

复制代码


游客,如果您要查看本帖隐藏内容请回复,如不想回复请点击赞助VIP贵宾:https://item.taobao.com/item.htm?id=540849877691

回复

使用道具 举报

0

主题

4

好友

14万

积分

VIP贵宾

Rank: 7Rank: 7Rank: 7

UID
119718
主题
0
金钱
40986
高清币
33432
鲜花
0
阅读权限
100
QQ
QQ
最后登录
2017-3-27
发表于 2014-8-23 23:36:06 |显示全部楼层
感谢楼主分享精彩电影!
回复

使用道具 举报

4

主题

1

好友

869

积分

知名艺人

Rank: 2

UID
225286
主题
4
金钱
258
高清币
66
鲜花
0
阅读权限
20
QQ
QQ
最后登录
2017-3-25
发表于 2014-8-23 23:41:51 |显示全部楼层
应该是死亡空间吧,打错了,不过无所谓了,先谢谢LZ!
回复

使用道具 举报

无效楼层,该帖已经被删除

0

主题

6

好友

1835

积分

人气偶像

Rank: 3Rank: 3

UID
223294
主题
0
金钱
1459
高清币
0
鲜花
0
阅读权限
30
QQ
QQ
最后登录
2017-3-27
发表于 2014-8-23 23:42:18 |显示全部楼层
感谢楼主分享精彩电影!

回复

使用道具 举报

0

主题

4

好友

7000

积分

金鸡奖主角

Rank: 5Rank: 5

UID
161214
主题
0
金钱
5221
高清币
71
鲜花
0
阅读权限
70
QQ
QQ
最后登录
2017-3-13
发表于 2014-8-23 23:43:23 |显示全部楼层
感谢楼主分享精彩电影!
回复

使用道具 举报

0

主题

0

好友

349

积分

VIP贵宾

Rank: 7Rank: 7Rank: 7

UID
297660
主题
0
金钱
279
高清币
14
鲜花
0
阅读权限
100
QQ
QQ
最后登录
2017-3-23
发表于 2014-8-23 23:51:47 |显示全部楼层
感谢楼主分享精彩电影!
回复

使用道具 举报

0

主题

7

好友

3万

积分

永恒神话

Rank: 10Rank: 10Rank: 10

UID
136101
主题
0
金钱
12015
高清币
8211
鲜花
0
阅读权限
90
QQ
QQ
最后登录
2017-3-28
发表于 2014-8-24 00:04:20 |显示全部楼层
每天都来中国高清论坛看看有什么电影!
回复

使用道具 举报

0

主题

0

好友

8226

积分

金鸡奖主角

Rank: 5Rank: 5

UID
308697
主题
0
金钱
3322
高清币
1416
鲜花
0
阅读权限
70
QQ
QQ
最后登录
2017-3-26
发表于 2014-8-24 00:17:39 |显示全部楼层
什么信息都找不到,难道是游戏改编的
回复

使用道具 举报

0

主题

0

好友

1213

积分

人气偶像

Rank: 3Rank: 3

UID
178456
主题
0
金钱
974
高清币
1
鲜花
0
阅读权限
30
QQ
QQ
最后登录
2017-3-3
发表于 2014-8-24 00:19:27 |显示全部楼层
感谢分享!!!!!!!!!!
回复

使用道具 举报

期待您加入中国高清论坛QQ交流11群:134327192
 懒得打字嘛,点击右侧快捷回复【左侧自定义内容】  【右侧自定义内容】
您需要登录后才可以回帖 登录 | 立即注册

回顶部